<?xml version="1.0" standalone="no"?>
<!DOCTYPE svg PUBLIC "-//W3C//DTD SVG 1.1//EN" "http://www.w3.org/Graphics/SVG/1.1/DTD/svg11.dtd" >
<svg xmlns="http://www.w3.org/2000/svg">
<metadata>Generated by IcoMoon</metadata>
<defs>
<font id="icomoon" horiz-adv-x="1024">
<font-face units-per-em="1024" ascent="960" descent="-64" />
<missing-glyph horiz-adv-x="1024" />
<glyph unicode="&#x20;" horiz-adv-x="512" d="" />
<glyph unicode="&#xe900;" glyph-name="window_01" horiz-adv-x="1298" d="M387.009 829.869v-520.524h780.785v520.524h-780.785zM256.878 960h1041.047v-780.785h-1041.047zM845.851-64h-845.851v585.589h130.131v-455.458h715.72z" />
<glyph unicode="&#xe901;" glyph-name="window_02" horiz-adv-x="1365" d="M0-64v170.652h1023.915v170.652h170.652v-341.305zM0 106.652v682.61h170.652v-682.61zM682.61 447.957v511.957h682.61v-511.957zM0 789.262v170.652h511.957v-170.652z" />
<glyph unicode="&#xe902;" glyph-name="line_01" horiz-adv-x="1075" d="M1074.688 523.922c0 240.421-240.859 436.078-537.307 436.078s-537.381-195.657-537.381-436.078c0-215.552 191.195-396.069 449.39-430.226 17.481-3.803 41.326-11.557 47.323-26.478 2.321-8.453 3.654-18.158 3.654-28.175 0-7.211-0.691-14.261-2.011-21.086l0.112 0.695s-6.29-37.888-7.314-46.007c-2.341-13.605-10.825-53.102 46.519-29.257 161.876 86.356 300.812 190.323 421.79 312.148l0.098 0.099c69.435 68.591 113.088 163.144 115.194 267.893l0.006 0.395zM347.794 395.337c0-5.655-4.585-10.24-10.24-10.24v0h-151.040c-5.655 0-10.24 4.585-10.24 10.24v0 234.057c0 5.655 4.585 10.24 10.24 10.24h38.107c5.639-0.041 10.199-4.601 10.24-10.236v-185.714h102.4c5.639-0.041 10.199-4.601 10.24-10.236v-0.004zM438.857 395.337c0-5.655-4.585-10.24-10.24-10.24v0h-38.327c-5.655 0-10.24 4.585-10.24 10.24v0 234.496c0 5.655 4.585 10.24 10.24 10.24v0h38.107c5.655 0 10.24-4.585 10.24-10.24v0zM698.295 395.337c0-5.655-4.585-10.24-10.24-10.24v0h-38.107c-0.406-0.056-0.876-0.087-1.353-0.087s-0.947 0.032-1.407 0.093l0.054-0.006h-1.755l-0.658 0.366c-1.497 1.015-2.69 2.372-3.484 3.963l-0.027 0.060-107.374 145.115v-138.971c0-5.655-4.585-10.24-10.24-10.24v0h-38.181c-5.655 0-10.24 4.585-10.24 10.24v0 234.203c0 5.655 4.585 10.24 10.24 10.24v0h42.203l0.512-0.366 0.585-0.439 0.585-0.658 0.805-1.024 109.202-147.017v138.971c0 5.655 4.585 10.24 10.24 10.24v0h37.888c5.655 0 10.24-4.585 10.24-10.24v0zM906.386 591.726c0-5.655-4.585-10.24-10.24-10.24v0h-102.4v-39.57h102.4c5.639-0.041 10.199-4.601 10.24-10.236v-38.111c0-5.655-4.585-10.24-10.24-10.24v0h-102.4v-39.57h102.4c5.639-0.041 10.199-4.601 10.24-10.236v-38.185c0-5.655-4.585-10.24-10.24-10.24v0h-151.186c-5.655 0-10.24 4.585-10.24 10.24v0 234.057c0 5.655 4.585 10.24 10.24 10.24v0h150.967c5.639-0.041 10.199-4.601 10.24-10.236v-0.004z" />
<glyph unicode="&#xe903;" glyph-name="twitter_01" horiz-adv-x="1259" d="M619.827 642.56h0.819c-4.296 17.419-6.76 37.416-6.76 57.99 0 0.313 0.001 0.626 0.002 0.939v-0.048c0 0.060 0 0.13 0 0.2 0 142.686 115.67 258.355 258.355 258.355 74.397 0 141.45-31.447 188.591-81.773l0.132-0.143c51.45 10.518 97.112 27.16 139.305 49.482l-2.806-1.354c9.216 4.608 18.33 9.114 27.341 14.234-16.222-48.545-44.941-89.291-82.37-119.743l-0.472-0.372c-9.014-7.405-19.050-14.44-29.607-20.689l-1.113-0.61h1.434l-1.331-0.922c45.057 5.429 86.037 15.828 124.748 30.785l-3.507-1.192c8.806 3.072 17.613 6.246 26.317 10.24-35.243-52.202-77.849-96.307-126.917-132.083l-1.492-1.037c0.717-11.264 0.717-22.221 0.717-33.587 0.010-1.434 0.016-3.13 0.016-4.827 0-403.399-327.020-730.419-730.419-730.419-1.626 0-3.25 0.005-4.873 0.016l0.249-0.001c-0.373-0.001-0.815-0.001-1.257-0.001-146.738 0-283.352 43.349-397.733 117.941l2.805-1.716c18.377-2.221 39.72-3.521 61.356-3.584h0.084c89.342 0.059 173.359 22.805 246.617 62.789l2.010 1.006c4.608 2.56 9.114 5.427 13.619 8.090 22.487 12.947 41.583 25.74 59.769 39.661l-1.298-0.954h-0.512l0.922 0.614c-112.518 1.409-207.434 75.192-240.439 176.877l-0.508 1.811c14.496-2.866 31.162-4.506 48.212-4.506 0.007 0 0.013 0 0.020 0h-0.001c17.715 0.171 34.878 2.102 51.453 5.625l-1.687-0.3c6.144 1.024 12.288 1.741 18.432 3.072h0.102c-119.223 24.657-207.566 128.794-207.566 253.565 0 0.244 0 0.488 0.001 0.732v-0.038 2.97c26.096-14.624 56.575-25.081 88.967-29.544l1.35-0.152c8.806-1.331 17.613-2.458 26.522-3.072l-1.024 0.717h1.434c-69.73 46.638-115.028 125.066-115.028 214.074 0 41.578 9.885 80.848 27.432 115.587l-0.673-1.469c2.355 5.427 5.325 11.059 8.499 16.384 126.27-154.384 312.267-255.822 522.209-268.8l2.079-0.103c2.458 0 4.915-0.614 7.475-0.819v0z" />
<glyph unicode="&#xe904;" glyph-name="facebook_01" horiz-adv-x="532" d="M157.013-64v467.115h-157.013v181.931h157.013v134.144c-0.044 1.852-0.069 4.033-0.069 6.22 0 42.904 9.653 83.553 26.906 119.893l-0.725-1.697c0.683 1.451 1.536 2.731 2.219 4.096 2.731 5.205 5.461 10.325 8.533 15.104 1.451 2.304 3.157 4.437 4.693 6.741 2.645 3.84 5.205 7.68 8.107 11.179 1.707 2.219 3.669 4.181 5.461 6.229 2.987 3.499 5.973 6.997 9.216 10.24 1.365 1.536 2.901 3.072 4.437 4.181 3.925 3.755 7.936 7.424 12.203 10.837l1.621 1.109c39.683 29.25 89.544 46.813 143.508 46.813 2.859 0 5.706-0.049 8.541-0.147l-0.412 0.011c1.646 0.008 3.593 0.012 5.542 0.012 47.53 0 94.436-2.67 140.576-7.869l-5.659 0.518v-162.816h-96.512c-75.605 0-90.368-36.011-90.368-88.491v-116.309h180.309l-23.381-181.931h-156.757v-467.115h-187.989z" />
<glyph unicode="&#xe905;" glyph-name="search_01" horiz-adv-x="1023" d="M755.41 126.495l77.366 77.512 190.495-190.495-77.366-77.585zM0 522.154c0 241.856 196.063 437.919 437.919 437.919s437.919-196.063 437.919-437.919c0-241.856-196.063-437.919-437.919-437.919v0c-241.856 0-437.919 196.063-437.919 437.919v0zM109.48 522.154c0-181.392 147.047-328.439 328.439-328.439s328.439 147.047 328.439 328.439c0 181.392-147.047 328.439-328.439 328.439v0c-181.291-0.249-328.19-147.147-328.439-328.415v-0.024z" />
<glyph unicode="&#xe906;" glyph-name="download_01" horiz-adv-x="914" d="M413.016 403.715v556.285h87.751v-556.285zM0 571.612l62.069 62.011 394.881-394.881 394.823 394.881 62.011-62.011-456.892-456.892zM20.007 23.751h862.771v-87.751h-862.771z" />
<glyph unicode="&#xe907;" glyph-name="arrow_01" horiz-adv-x="1013" d="M623.316 398.832h-623.381v98.335h623.381zM500.79-64.328l-69.556 69.556 442.51 442.51-442.51 442.51 69.556 69.556 512-512z" />
<glyph unicode="&#xe908;" glyph-name="arrow_02" horiz-adv-x="322" d="M313.854 433.588l7.33-3.706-247.065-494.129-73.461 36.648 231.252 462.093-231.664 490.258 74.119 34.918 247.065-522.624z" />
<glyph unicode="&#xe909;" glyph-name="safe_01" horiz-adv-x="1170" d="M650.227 250.969h-132.308c-32.198 2.697-57.428 29.065-58.313 61.511l-0.002 0.086q0 0.349 0 0.733v60.794h-48.956c-32.508 1.213-58.734 26.532-61.372 58.539l-0.015 0.23q0 1.048 0 2.095v82.025c1.617 29.845 26.212 53.433 56.316 53.433 2.119 0 4.21-0.117 6.268-0.344l-0.254 0.023h48.014v55.347q0 0.873 0 1.746c2.16 29.913 26.93 53.37 57.192 53.426h0.006c1.327 0 2.654 0 3.981 0h128.292c1.467 0 2.933 0 4.4 0 0.077 0 0.168 0.001 0.26 0.001 29.529 0 53.828-22.39 56.847-51.119l0.021-0.248v-1.397q0-1.222 0-2.444v-55.312h46.407c1.642 0.186 3.545 0.293 5.474 0.293 25.705 0 46.997-18.894 50.745-43.552l0.036-0.284c0.359-2.304 0.564-4.962 0.564-7.667 0-0.988-0.027-1.969-0.081-2.944l0.006 0.135v-79.93c0.106-1.314 0.167-2.845 0.167-4.391 0-29.693-22.407-54.153-51.235-57.392l-0.263-0.024h-51.82v-60.829q0-0.419 0-0.803c-1.027-32.43-26.2-58.668-58.081-61.372l-0.234-0.016zM521.48 303.348h127.35c5.215 0.82 9.201 5.141 9.497 10.447l0.001 0.029v86.459c0 14.464 11.725 26.189 26.189 26.189v0h72.841c2.426 0.523 4.217 2.649 4.217 5.194 0 0.187-0.010 0.373-0.029 0.555l0.002-0.023c-0.023 0.412-0.036 0.894-0.036 1.379s0.013 0.967 0.039 1.446l-0.003-0.067v82.025q0 0.454 0 0.873c-0.396-0.023-0.86-0.036-1.327-0.036s-0.93 0.013-1.391 0.039l0.064-0.003h-74.377c-14.464 0-26.189 11.725-26.189 26.189v0 80.034c-0.396 2.366-2.411 4.153-4.85 4.19h-0.528c-0.407-0.023-0.883-0.035-1.362-0.035s-0.955 0.013-1.428 0.038l0.066-0.003h-133.426c-2.4-0.013-4.392-1.741-4.814-4.020l-0.005-0.030v-80.314c0-14.464-11.725-26.189-26.189-26.189v0h-74.203c-0.174 0.005-0.379 0.008-0.585 0.008-3.434 0-6.681-0.802-9.563-2.229l0.126 0.056v-79.266c0.783-5.306 5.091-9.398 10.434-9.844l0.042-0.003h73.749c14.464 0 26.189-11.725 26.189-26.189v0-86.459c0.3-5.326 4.287-9.636 9.435-10.433l0.063-0.008zM584.893-64c-20.469 0.017-38.991 8.343-52.376 21.787l-435.408 435.268c-60.011 60.138-97.12 143.151-97.12 234.83s37.109 174.692 97.125 234.836l-0.005-0.006c60.016 58.348 142.046 94.326 232.479 94.326 0.876 0 1.751-0.003 2.625-0.010l-0.134 0.001c0.794 0.007 1.732 0.011 2.672 0.011 90.281 0 172.161-35.97 232.090-94.361l-0.071 0.069 18.123-17.983 18.018 17.983c60.094 59.966 143.045 97.046 234.656 97.046 183.371 0 332.044-148.564 332.219-331.895v-0.017c0.001-0.268 0.001-0.586 0.001-0.904 0-91.444-37.235-174.192-97.371-233.908l-435.389-435.389c-13.29-13.394-31.706-21.685-52.058-21.685-0.027 0-0.053 0-0.080 0h0.004zM332.080 904.653c-0.755 0.007-1.648 0.012-2.542 0.012-75.982 0-144.918-30.165-195.487-79.174l0.073 0.071c-50.525-50.659-81.766-120.572-81.766-197.781s31.241-147.123 81.773-197.788l435.504-435.259c3.812-3.922 9.137-6.355 15.031-6.355 0.031 0 0.063 0 0.094 0h-0.005c0.001 0 0.002 0 0.004 0 5.953 0 11.339 2.43 15.219 6.353l435.372 435.372c52.434 50.897 84.974 122.040 84.974 200.783 0 154.475-125.227 279.701-279.701 279.701-78.769 0-149.933-32.56-200.767-84.956l-0.068-0.070-54.893-54.753-55.137 54.753c-50.351 48.933-119.161 79.104-195.019 79.104-0.935 0-1.868-0.005-2.8-0.014l0.143 0.001z" />
<glyph unicode="&#xe90a;" glyph-name="attention_01" horiz-adv-x="1226" d="M613.041 904.011c-0.089 0.002-0.194 0.002-0.299 0.002-6.604 0-12.384-3.529-15.557-8.804l-0.046-0.082-538.277-874.696c-1.737-2.782-2.767-6.16-2.767-9.779 0-10.307 8.356-18.663 18.663-18.663 0.002 0 0.004 0 0.006 0h1076.555c0.002 0 0.003 0 0.005 0 10.307 0 18.663 8.356 18.663 18.663 0 3.619-1.030 6.998-2.813 9.858l0.046-0.079-538.277 874.696c-3.218 5.357-8.998 8.886-15.602 8.886-0.105 0-0.21-0.001-0.314-0.003h0.016zM613.041 960c0.067 0 0.147 0 0.227 0 26.65 0 50.010-14.084 63.044-35.215l0.183-0.319 538.389-874.622c6.949-11.127 11.070-24.641 11.070-39.118 0-41.184-33.35-74.579-74.517-74.652h-1076.674c-41.174 0.073-74.524 33.468-74.524 74.652 0 14.476 4.121 27.991 11.253 39.433l-0.183-0.316 538.277 874.622c13.217 21.45 36.577 35.535 63.227 35.535 0.080 0 0.16 0 0.239 0h-0.012zM529.058 638.96h160.502v-150.797l-28.405-234.892h-101.974l-30.122 234.818zM633.571 582.971h-48.524v-91.337l23.403-182.375h3.061l22.060 182.3zM613.041 187.95c30.922 0 55.989-25.067 55.989-55.989s-25.067-55.989-55.989-55.989c-30.922 0-55.989 25.067-55.989 55.989v0c0 30.922 25.067 55.989 55.989 55.989v0zM613.041 215.945c46.383 0 83.983-37.601 83.983-83.983s-37.601-83.983-83.983-83.983c-46.383 0-83.983 37.601-83.983 83.983v0c0.064 46.357 37.626 83.92 83.977 83.983h0.006zM613.041 103.967c15.461 0 27.994 12.534 27.994 27.994s-12.534 27.994-27.994 27.994c-15.461 0-27.994-12.534-27.994-27.994v0c0.021-15.452 12.542-27.973 27.992-27.994h0.002z" />
<glyph unicode="&#xe90b;" glyph-name="hospital_01" horiz-adv-x="1215" d="M892.371-14.264c0.027 0.282 0.042 0.61 0.042 0.941s-0.015 0.659-0.045 0.983l0.003-0.041v565.961h215.764v-565.961c-0.027-0.282-0.042-0.61-0.042-0.941s0.015-0.659 0.045-0.983l-0.003 0.041zM90.503-14.264c0.027 0.282 0.042 0.61 0.042 0.941s-0.015 0.659-0.045 0.983l0.003-0.041v565.961h215.885v-565.961c-0.027-0.282-0.042-0.61-0.042-0.941s0.015-0.659 0.045-0.983l-0.003 0.041zM1190.989-14.264h-33.118c0.027 0.282 0.043 0.61 0.043 0.941s-0.016 0.659-0.046 0.982l0.003-0.041v594.954c-0.144 11.612-9.59 20.97-21.223 20.97-0.989 0-1.962-0.068-2.915-0.199l0.111 0.012h-241.353v207.355c0 13.495-10.492 19.342-24.027 19.342h-58.947v-44.050h33.158v-798.384c-0.027-0.282-0.043-0.61-0.043-0.941s0.016-0.659 0.046-0.982l-0.003 0.041h-486.631c0.027 0.282 0.043 0.61 0.043 0.941s-0.016 0.659-0.046 0.982l0.003-0.041v798.184h49.776v44.050h-75.165c-13.495 0-24.267-5.847-24.267-19.342v-207.355h-241.273c-0.844 0.118-1.818 0.185-2.809 0.185-11.68 0-21.181-9.329-21.458-20.942v-594.78c-0.027-0.282-0.043-0.61-0.043-0.941s0.016-0.659 0.046-0.982l-0.003 0.041h-16.419c-13.745 0-24.888-11.143-24.888-24.888s11.143-24.888 24.888-24.888v0h1166.562c13.745 0 24.888 11.143 24.888 24.888s-11.143 24.888-24.888 24.888v0zM549.703 440.251h99.513v94.067h-99.513zM672.962 390.475h-146.686c-14.243 0.744-25.606 12.106-26.347 26.282l-0.003 0.068v146.686c0 13.495 12.855 20.503 26.35 20.503h146.726c13.495 0 26.029-7.008 26.029-20.503v-146.686c-0.617-14.187-11.874-25.556-25.957-26.347l-0.072-0.003zM582.86 700.146h49.776v42.608c-0.001 0.073-0.001 0.16-0.001 0.247 0 12.96 10.506 23.467 23.467 23.467 0.198 0 0.395-0.002 0.591-0.007l-0.029 0.001h58.947v60.829h-58.947c-13.495 0-24.027 16.018-24.027 29.553v53.38h-49.776v-53.38c0-13.495-10.532-29.553-24.027-29.553h-58.947v-60.829h58.947c0.167 0.004 0.364 0.007 0.562 0.007 12.96 0 23.467-10.506 23.467-23.467 0-0.087 0-0.174-0.001-0.26v0.013zM656.624 650.369h-97.791c-14.215 1.191-25.353 12.829-25.748 27.152l-0.001 0.038v39.164h-55.743c-14.406 0.539-26.032 11.748-27.224 25.926l-0.007 0.104v114.089c0 13.495 13.696 20.223 27.231 20.223h55.743v61.269c0.883 12.213 11.008 21.786 23.369 21.786 0.838 0 1.666-0.044 2.482-0.13l-0.102 0.009h97.791c0.714 0.077 1.542 0.121 2.38 0.121 12.361 0 22.486-9.573 23.365-21.71l0.004-0.076v-61.269h55.743c0.836 0.131 1.8 0.205 2.782 0.205 10.461 0 18.941-8.48 18.941-18.941 0-0.523-0.021-1.042-0.063-1.554l0.004 0.067v-114.089c0.080-0.731 0.126-1.579 0.126-2.437 0-12.41-9.552-22.59-21.705-23.587l-0.085-0.006h-55.743v-39.124c-0.396-14.361-11.535-26-25.647-27.184l-0.102-0.007zM549.703 180.397h99.513v93.986h-99.513zM672.962 130.62h-146.686c-14.109 0.343-25.517 11.445-26.346 25.395l-0.004 0.074v146.686c1.166 12.13 11.306 21.539 23.644 21.539 0.953 0 1.894-0.056 2.818-0.165l-0.112 0.011h146.726c0.793 0.095 1.712 0.149 2.643 0.149 12.28 0 22.357-9.432 23.381-21.447l0.006-0.087v-146.686c-0.686-13.976-12.001-25.095-25.994-25.468l-0.036-0.001z" />
<glyph unicode="&#xe90c;" glyph-name="heart_01" horiz-adv-x="1321" d="M349.245-64c-14.895 0-26.97 12.075-26.97 26.97v0 47.575c-7.41 12.243-15.647 22.848-24.957 32.402l0.037-0.038c-6.653 6.581-111.692 102.235-180.628 164.913l-1.438 1.438-15.067 15.93c-2.215 2.34-4.023 5.094-5.292 8.129l-0.066 0.178-90.619 221.478q-0.467 1.115-0.791 2.23c-2.17 7.261-3.419 15.604-3.419 24.239 0 2.176 0.079 4.333 0.235 6.469l-0.017-0.286c0.915 23.732 15.467 43.852 36.005 52.819l0.387 0.151c7.595 3.408 16.461 5.393 25.792 5.393 17.263 0 32.939-6.796 44.498-17.858l-0.024 0.022c8.6-7.65 15.872-16.549 21.591-26.457l0.273-0.513q0.432-0.791 0.791-1.582l67.821-148.048c1.548-3.298 2.452-7.162 2.452-11.238 0-14.899-12.078-26.977-26.977-26.977-10.824 0-20.158 6.374-24.455 15.574l-0.070 0.166-67.389 146.897c-2.894 4.655-6.302 8.646-10.222 12.065l-0.063 0.053c-6.796 5.61-9.997 4.207-12.37 3.164s-3.596-1.618-4.243-6.832c-0.089-0.934-0.14-2.019-0.14-3.116 0-2.72 0.313-5.367 0.906-7.906l-0.046 0.234 87.994-215.149 10.788-11.507c20.929-19.023 172.609-156.75 181.599-165.848 14.415-14.778 26.937-31.506 37.11-49.725l0.612-1.195c1.967-3.647 3.125-7.981 3.129-12.585v-54.804c-0.081-14.758-12.002-26.705-26.743-26.826h-0.012zM539.366-64c-14.895 0-26.97 12.075-26.97 26.97v0 56.817c0.536 5.117 0.842 11.055 0.842 17.065 0 42.453-15.269 81.34-40.615 111.469l0.216-0.264c-37.229 40.385-76.482 77.405-118.179 111.55l-2.035 1.616-0.683 0.575-84.255 73.862c-2.851 1.88-6.154 3.394-9.681 4.366l-0.244 0.057c-5.070 1.223-6.365 0-7.839-1.654s-4.423-4.603-0.935-13.557c1.952-4.835 4.37-9.009 7.283-12.781l-0.091 0.123 93.496-86.088c5.809-4.977 9.466-12.321 9.466-20.518 0-14.895-12.075-26.97-26.97-26.97-7.464 0-14.22 3.032-19.103 7.932l-0.001 0.001-94.503 87.275q-0.971 0.899-1.87 1.906c-7.304 8.489-13.362 18.323-17.724 29.029l-0.256 0.71c-3.426 7.61-5.422 16.497-5.422 25.85 0 17.255 6.793 32.923 17.851 44.476l-0.022-0.024c10.981 11.671 26.528 18.939 43.772 18.939 6.589 0 12.931-1.061 18.863-3.022l-0.424 0.121c10.5-3.050 19.656-7.638 27.754-13.584l-0.244 0.171 1.474-1.187 85.010-74.509c46.361-37.829 87.926-77.173 126.447-119.345l0.816-0.906c32.631-38.942 52.45-89.586 52.45-144.858 0-6.274-0.255-12.488-0.756-18.633l0.053 0.807v-56.817c0-14.895-12.075-26.97-26.97-26.97v0zM971.57-64c-14.895 0-26.97 12.075-26.97 26.97v0 54.767c0.004 4.605 1.161 8.939 3.199 12.73l-0.071-0.144c10.785 19.413 23.307 36.141 37.769 50.968l-0.047-0.048c9.17 9.098 160.67 146.825 181.599 165.848l10.788 11.507 87.994 215.149c0.546 2.305 0.86 4.952 0.86 7.672 0 1.097-0.051 2.182-0.151 3.254l0.010-0.137c-0.575 5.214-2.301 5.933-4.243 6.832s-5.574 2.445-12.37-3.164c-3.983-3.472-7.39-7.463-10.156-11.897l-0.129-0.222-67.281-146.897c-4.366-9.365-13.701-15.739-24.525-15.739-14.899 0-26.977 12.078-26.977 26.977 0 4.075 0.904 7.94 2.522 11.403l-0.070-0.166 67.821 148.048q0.36 0.827 0.791 1.582c5.992 10.421 13.264 19.32 21.757 26.876l0.107 0.094c11.536 11.040 27.211 17.835 44.474 17.835 9.33 0 18.197-1.985 26.201-5.556l-0.409 0.163c20.91-9.127 35.447-29.245 36.352-52.857l0.003-0.112c0.139-1.85 0.218-4.007 0.218-6.183 0-8.635-1.249-16.978-3.576-24.859l0.157 0.62q-0.36-1.151-0.791-2.23l-90.584-221.442c-1.335-3.213-3.143-5.967-5.37-8.319l0.012 0.012-15.067-15.93-1.438-1.438c-68.971-62.678-173.975-158.224-180.628-164.913-9.271-9.517-17.508-20.122-24.478-31.581l-0.442-0.783v-47.575c0-0.043 0-0.093 0-0.144 0-14.857-12.014-26.909-26.857-26.97h-0.006zM781.449-64c-14.895 0-26.97 12.075-26.97 26.97v0 56.817c-0.446 5.328-0.701 11.531-0.701 17.793 0 55.271 19.818 105.912 52.735 145.208l-0.288-0.353c39.337 43.078 80.902 82.421 125.165 118.588l2.098 1.662 85.010 74.509 1.474 1.187c7.853 5.775 17.010 10.363 26.89 13.258l0.62 0.156c5.508 1.839 11.849 2.901 18.439 2.901 17.244 0 32.791-7.268 43.744-18.908l0.029-0.031c11.006-11.523 17.779-27.171 17.779-44.401 0-9.373-2.004-18.277-5.608-26.308l0.163 0.407c-4.617-11.416-10.676-21.251-18.098-29.879l0.118 0.14q-0.899-1.007-1.87-1.906l-94.539-87.311c-4.679-4.010-10.806-6.452-17.504-6.452-14.895 0-26.97 12.075-26.97 26.97 0 7.431 3.005 14.16 7.867 19.038l-0.001-0.001 93.245 86.124c3.066 3.885 5.647 8.351 7.536 13.165l0.123 0.356c2.949 8.271 0.503 10.788-1.259 12.694s-2.769 2.877-7.839 1.654c-3.771-1.029-7.074-2.543-10.056-4.504l0.131 0.081-84.938-74.437c-43.717-35.756-82.957-72.763-119.456-112.337l-0.722-0.793c-25.132-29.866-40.402-68.754-40.402-111.209 0-6.021 0.307-11.97 0.907-17.833l-0.061 0.736v-56.817c-0.020-14.817-11.985-26.832-26.781-26.934h-0.010zM660.875 217.172h-2.050c-6.703 0.004-12.833 2.453-17.548 6.503l0.036-0.030c-34.522 29.487-180.124 161.029-255.317 238.523-79.364 81.917-156.642 172.393-156.642 296.707 0.3 57.354 25.887 108.672 66.172 143.417l0.246 0.208c41.069 35.754 95.11 57.55 154.241 57.55 0.895 0 1.789-0.005 2.681-0.015l-0.136 0.001c55.127-0.312 105.606-19.958 145.060-52.493l-0.393 0.315c24.807-20.186 45.727-43.956 62.273-70.716l0.693-1.204c42.496 72.802 119.264 121.54 207.607 124.054l0.351 0.008c0.746 0.009 1.627 0.013 2.51 0.013 59.131 0 113.171-21.796 154.525-57.792l-0.284 0.242c40.558-34.941 66.171-86.26 66.49-143.569v-0.056c0-124.314-77.314-214.754-156.534-296.671-72.999-75.193-219.141-206.699-256.503-238.559-4.674-4-10.791-6.434-17.476-6.437v0zM452.594 906.060c-0.762 0.012-1.662 0.018-2.563 0.018-45.38 0-86.874-16.642-118.71-44.157l0.231 0.195c-29.31-25.059-47.878-61.944-48.258-103.176v-0.066c0-104.284 66.85-182.174 141.287-259.2 65.34-67.245 184.547-175.917 235.251-220.687 52.25 45.921 172.609 155.168 236.258 220.723 74.473 77.027 141.323 154.88 141.323 259.164-0.39 41.302-18.971 78.187-48.105 103.084l-0.189 0.158c-31.6 27.318-73.089 43.961-118.464 43.961-0.881 0-1.76-0.006-2.638-0.019l0.133 0.001c-85.307-4.33-156.295-61.061-181.697-138.459l-0.405-1.425c-3.865-10.381-13.66-17.656-25.163-17.728h-0.98c-11.48 0.049-21.262 7.263-25.11 17.399l-0.062 0.185c-15.039 40.068-39.449 73.677-70.653 99.323l-0.404 0.322c-29.962 24.848-68.715 40.041-111.006 40.383h-0.075z" />
<glyph unicode="&#xe90d;" glyph-name="seminar_01" horiz-adv-x="1025" d="M999.855 162.038h-262.323c-13.968 0-25.291 11.323-25.291 25.291s11.323 25.291 25.291 25.291v0h236.897v696.796h-923.846v-619.337c0-13.968-11.323-25.291-25.291-25.291s-25.291 11.323-25.291 25.291v0 644.628c0 13.968 11.323 25.291 25.291 25.291v0h974.564c13.968 0 25.291-11.323 25.291-25.291v0-747.379c0-13.968-11.323-25.291-25.291-25.291v0zM511.359 264.789c-13.968 0-25.291 11.323-25.291 25.291v0 102.852c0 13.968 11.323 25.291 25.291 25.291v0h192.552c0.052 0 0.113 0.001 0.175 0.001 1.127 0 2.237-0.074 3.325-0.217l-0.128 0.014c1.845-0.251 3.978-0.394 6.144-0.394 20.844 0 38.589 13.271 45.244 31.825l0.105 0.335h-391.174c-39.623 0-53.078-10.386-59.755-18.21-11.588-18.818-18.454-41.619-18.454-66.023 0-4.86 0.272-9.657 0.803-14.376l-0.053 0.579v-61.644c0-13.968-11.323-25.291-25.291-25.291s-25.291 11.323-25.291 25.291v0 61.61c-0.476 4.755-0.748 10.276-0.748 15.861 0 36.253 11.442 69.835 30.911 97.329l-0.353-0.526c22.416 22.486 53.421 36.399 87.675 36.399 3.716 0 7.394-0.164 11.027-0.484l-0.47 0.033h418.388c0.002 0 0.004 0 0.006 0 12.827 0 23.423-9.548 25.069-21.925l0.014-0.129c0.517-3.808 0.812-8.209 0.812-12.679s-0.295-8.872-0.867-13.185l0.055 0.506c-6.496-48.712-47.781-85.895-97.751-85.895-3.865 0-7.677 0.222-11.426 0.655l0.457-0.043h-165.642v-77.56c0 0 0 0 0 0 0-13.968-11.323-25.291-25.291-25.291-0.024 0-0.047 0-0.071 0h0.004zM552.534-64c-13.968 0-25.291 11.323-25.291 25.291v0 123.321c0 13.968 11.323 25.291 25.291 25.291v0h47.211l50.583 85.451v28.36h-524.646v-28.36l50.752-85.485h47.211c13.968 0 25.291-11.323 25.291-25.291v0-123.321c0-13.968-11.323-25.291-25.291-25.291s-25.291 11.323-25.291 25.291v0 98.063h-36.285c-0.002 0-0.004 0-0.006 0-9.202 0-17.256 4.914-21.681 12.262l-0.064 0.114-61.644 103.83c-2.225 3.689-3.541 8.144-3.541 12.906 0 0.003 0 0.007 0 0.010v-0.001 60.699c0 13.968 11.323 25.291 25.291 25.291v0h575.397c13.968 0 25.291-11.323 25.291-25.291v0-60.699c0-0.003 0-0.006 0-0.009 0-4.762-1.316-9.217-3.604-13.020l0.064 0.114-61.644-103.83c-4.489-7.461-12.543-12.376-21.745-12.376-0.002 0-0.004 0-0.006 0h-36.352v-98.030c0-13.968-11.323-25.291-25.291-25.291v0zM392.692 766.571c69.375 0 125.614-56.239 125.614-125.614s-56.239-125.614-125.614-125.614c-69.375 0-125.614 56.239-125.614 125.614v0c0.077 69.344 56.27 125.537 125.607 125.614h0.008zM392.692 565.959c41.439 0 75.031 33.593 75.031 75.031s-33.593 75.031-75.031 75.031c-41.439 0-75.031-33.593-75.031-75.031 0-0.012 0-0.024 0-0.035v0.002c0.038-41.423 33.608-74.993 75.028-75.031h0.004zM745.76 449.754c-13.968 0-25.291 11.323-25.291 25.291v0 217.068c0 13.968 11.323 25.291 25.291 25.291v0c13.968 0 25.291-11.323 25.291-25.291v0-217.068c0-13.968-11.323-25.291-25.291-25.291v0z" />
<glyph unicode="&#xe90e;" glyph-name="meeting_01" horiz-adv-x="1005" d="M889.704 686.531c61.89 0 112.061-50.172 112.061-112.061s-50.172-112.061-112.061-112.061c-61.89 0-112.061 50.172-112.061 112.061v0c0.058 61.866 50.195 112.003 112.056 112.061h0.006zM889.704 513.596c33.638 0 60.907 27.269 60.907 60.907s-27.269 60.907-60.907 60.907c-33.638 0-60.907-27.269-60.907-60.907 0-0.012 0-0.024 0-0.036v0.002c0.058-33.608 27.297-60.834 60.904-60.873h0.004zM979.769-64c-13.852 0.013-25.125 11.036-25.542 24.788l-0.001 0.038-10.231 350.712q0 0.375 0 0.75c-0.572 12.219-3.517 23.616-8.381 33.93l0.23-0.543c-7.383 16.158-23.404 27.184-42.001 27.184-1.41 0-2.804-0.063-4.182-0.187l0.178 0.013c-36.797 0-50.438-7.707-61.385-21.007-21.050-33.208-37.070-71.952-45.804-113.381l-0.405-2.295c-3.152-10.806-12.968-18.567-24.598-18.567-14.126 0-25.577 11.451-25.577 25.577 0 2.433 0.34 4.787 0.974 7.016l-0.044-0.18c10.622 51.039 30.149 96.185 57.050 135.933l-0.849-1.33c22.206 24.524 54.164 39.866 89.705 39.866 3.777 0 7.513-0.173 11.201-0.512l-0.474 0.035c1.213 0.054 2.635 0.085 4.064 0.085 39.499 0 73.489-23.587 88.653-57.444l0.246-0.615c7.259-15.622 11.745-33.848 12.34-53.055l0.005-0.213 10.231-350.439c0.007-0.227 0.011-0.493 0.011-0.761 0-13.866-11.034-25.155-24.8-25.565l-0.038-0.001zM115.676 686.531c61.89 0 112.061-50.172 112.061-112.061s-50.172-112.061-112.061-112.061c-61.89 0-112.061 50.172-112.061 112.061v0c0.058 61.866 50.195 112.003 112.056 112.061h0.006zM115.676 513.596c33.638 0 60.907 27.269 60.907 60.907s-27.269 60.907-60.907 60.907c-33.638 0-60.907-27.269-60.907-60.907 0-0.012 0-0.024 0-0.036v0.002c0.058-33.608 27.297-60.834 60.904-60.873h0.004zM25.577-64h-0.75c-13.789 0.43-24.804 11.711-24.804 25.565 0 0.268 0.004 0.535 0.012 0.801l-0.001-0.039 10.231 350.439c0.6 19.42 5.086 37.646 12.702 54.131l-0.357-0.862c15.411 34.472 49.4 58.058 88.899 58.058 1.418 0 2.828-0.030 4.231-0.091l-0.2 0.007c3.333 0.327 7.205 0.513 11.121 0.513 35.639 0 67.675-15.425 89.795-39.964l0.096-0.108c26.052-38.418 45.579-83.564 55.77-132.145l0.431-2.458c0.622-2.1 0.979-4.513 0.979-7.010 0-14.126-11.451-25.577-25.577-25.577-11.693 0-21.553 7.846-24.603 18.561l-0.044 0.18c-9.139 43.725-25.16 82.469-47.063 117.124l0.854-1.448c-11.117 13.3-24.724 21.007-61.385 21.007-1.193 0.11-2.579 0.172-3.981 0.172-19.058 0-35.417-11.554-42.455-28.040l-0.114-0.301c-4.299-9.453-7.043-20.451-7.597-32.023l-0.008-0.204q0-0.375 0-0.75l-10.231-350.712c-0.416-13.801-11.703-24.83-25.566-24.83-0.136 0-0.271 0.001-0.406 0.003h0.020zM776.415 113.743h-595.432c-14.126 0-25.577 11.451-25.577 25.577v0c0 14.126 11.451 25.577 25.577 25.577v0h595.432c14.126 0 25.577-11.451 25.577-25.577v0c0-14.126-11.451-25.577-25.577-25.577v0zM478.665-63.966c-14.126 0-25.577 11.451-25.577 25.577v0 177.709c0 14.126 11.451 25.577 25.577 25.577v0c14.126 0 25.577-11.451 25.577-25.577v0-177.709c0-14.126-11.451-25.577-25.577-25.577v0zM351.189 561.818c0 0 0 0 0 0-14.114 0-25.558 11.432-25.577 25.541v45.086h-61.692c-14.126 0-25.577 11.451-25.577 25.577v0 276.402c0 14.126 11.451 25.577 25.577 25.577v0h424.135c14.126 0 25.577-11.451 25.577-25.577v0-276.436c0-14.126-11.451-25.577-25.577-25.577v0h-230.227l-91.702-65.818c-4.131-2.985-9.297-4.774-14.881-4.774-0.020 0-0.040 0-0.059 0h0.003zM289.497 683.564h61.623c0 0 0 0 0 0 14.114 0 25.558-11.432 25.577-25.541v-20.873l57.974 41.503c4.134 3.001 9.307 4.803 14.901 4.808h212.904v225.384h-372.981zM574.561 815.848h-205.741c-14.126 0-25.577 11.451-25.577 25.577v0c0 14.126 11.451 25.577 25.577 25.577v0h205.741c14.126 0 25.577-11.451 25.577-25.577v0c0-14.126-11.451-25.577-25.577-25.577v0zM491.283 728.341h-126.18c-14.126 0-25.577 11.451-25.577 25.577v0c0 14.126 11.451 25.577 25.577 25.577v0h126.18c14.126 0 25.577-11.451 25.577-25.577v0c0-14.126-11.451-25.577-25.577-25.577v0z" />
<glyph unicode="&#xe90f;" glyph-name="document_01" horiz-adv-x="853" d="M64 896v-896h725.333v896h-725.333zM0 960h853.333v-1024h-853.333zM675.371 4.693c-0.001 0-0.003 0-0.004 0-17.673 0-32 14.327-32 32 0 9.262 3.935 17.605 10.224 23.448l0.020 0.018 106.667 98.816c5.603 4.935 13.002 7.946 21.105 7.946 17.673 0 32-14.327 32-32 0-8.963-3.685-17.065-9.622-22.874l-0.006-0.006-106.667-98.816c-5.678-5.287-13.319-8.532-21.717-8.533v0zM609.152 693.333h-365.013c-17.673 0-32 14.327-32 32s14.327 32 32 32v0h365.013c17.673 0 32-14.327 32-32s-14.327-32-32-32v0zM609.152 522.667h-365.013c-17.673 0-32 14.327-32 32s14.327 32 32 32v0h365.013c17.673 0 32-14.327 32-32s-14.327-32-32-32v0zM609.152 352h-365.013c-17.673 0-32 14.327-32 32s14.327 32 32 32v0h365.013c17.673 0 32-14.327 32-32s-14.327-32-32-32v0zM609.152 181.333h-365.013c-17.673 0-32 14.327-32 32s14.327 32 32 32v0h365.013c17.673 0 32-14.327 32-32s-14.327-32-32-32v0z" />
<glyph unicode="&#xe910;" glyph-name="instagram_01" d="M299.96 956.523c-44.882-1.004-87.429-9.749-126.767-24.946l2.558 0.869c-35.463-13.639-65.678-33.8-90.523-59.231l-0.047-0.048c-25.419-24.955-45.525-55.228-58.525-89.027l-0.58-1.717c-14.143-36.842-22.709-79.443-23.55-123.933l-0.005-0.362c-2.521-54.412-2.521-71.796-2.521-210.867s0.869-156.455 3.477-211.128c1.003-44.942 9.748-87.549 24.947-126.948l-0.87 2.566c13.695-35.397 33.879-65.551 59.313-90.345l0.053-0.051c24.996-25.325 55.298-45.346 89.11-58.267l1.721-0.578c36.843-14.15 79.444-22.717 123.937-23.55l0.358-0.005c54.586-2.434 72.056-2.955 211.041-2.695s156.455 0.869 211.128 3.477c44.889 1.044 87.43 9.786 126.782 24.949l-2.574-0.872c68.905 27.302 122.382 80.977 148.8 148.247l0.615 1.776c14.166 36.843 22.735 79.447 23.55 123.945l0.005 0.35c2.347 54.672 2.955 72.056 2.695 211.128s-0.869 156.455-3.477 211.041c-1.026 44.886-9.769 87.43-24.947 126.775l0.871-2.567c-13.686 35.386-33.839 65.537-59.231 90.35l-0.048 0.047c-24.974 25.436-55.279 45.544-89.115 58.527l-1.716 0.579c-36.862 14.092-79.48 22.572-123.986 23.291l-0.309 0.004c-54.586 2.781-72.056 2.781-211.128 2.781s-156.455-0.869-211.041-3.477zM305.957 30.916c-34.221 0.345-66.856 6.69-97.048 18.029l1.958-0.645c-23.090 8.647-42.769 21.646-58.904 38.13l-0.028 0.028c-16.606 16.092-29.69 35.714-38.053 57.666l-0.365 1.092c-10.873 28.223-17.397 60.863-17.903 94.961l-0.003 0.216c-2.521 53.977-3.129 70.144-3.39 206.869s0 152.892 2.608 206.869c0.334 34.219 6.68 66.856 18.028 97.044l-0.644-1.954c8.624 23.098 21.627 42.782 38.127 58.902l0.031 0.030c16.107 16.627 35.762 29.716 57.754 38.055l1.091 0.363c28.169 10.859 60.747 17.381 94.781 17.903l0.222 0.003c53.977 2.521 70.144 3.129 206.869 3.39s152.892 0 206.956-2.608c34.218-0.321 66.856-6.668 97.039-18.027l-1.949 0.643c23.103-8.61 42.789-21.615 58.9-38.126l0.031-0.032c16.63-16.105 29.719-35.761 38.056-57.755l0.363-1.090c10.71-28.207 17.056-60.815 17.383-94.862l0.001-0.141c2.608-53.977 3.129-70.231 3.39-206.869s0-152.892-2.608-206.869c-0.343-34.221-6.688-66.856-18.029-97.047l0.645 1.957c-17.531-44.825-52.258-79.665-95.855-96.949l-1.147-0.401c-28.207-10.693-60.812-17.037-94.854-17.383l-0.149-0.001c-53.977-2.521-70.144-3.129-206.869-3.39s-152.892 0-206.869 2.608zM722.737 722.362c0.050-33.902 27.544-61.365 61.452-61.365 33.939 0 61.452 27.513 61.452 61.452s-27.513 61.452-61.452 61.452c-0.061 0-0.122 0-0.183 0h0.010c-33.864-0.099-61.278-27.574-61.278-61.452 0-0.031 0-0.061 0-0.092v0.005zM249.112 447.261c0.248-145.026 117.871-262.497 262.931-262.497 145.213 0 262.932 117.719 262.932 262.932s-117.719 262.932-262.932 262.932c-0.183 0-0.366 0-0.549-0.001h0.028c-144.978-0.247-262.411-117.832-262.411-262.845 0-0.183 0-0.367 0.001-0.55v0.028zM341.333 447.261c0 0.103 0 0.225 0 0.347 0 94.281 76.43 170.71 170.71 170.71s170.71-76.43 170.71-170.71c0-94.189-76.281-170.561-170.435-170.71h-0.014c-0.078 0-0.169 0-0.261 0-94.158 0-170.512 76.232-170.71 170.344v0.019z" />
<glyph unicode="&#xe911;" glyph-name="key_01" horiz-adv-x="1755" d="M511.956 960c-282.77 0-512-229.23-512-512s229.23-512 512-512v0c201.042 3.286 373.966 120.41 457.413 289.581l1.356 3.040h199.587v-219.422h438.845v219.422h146.223v438.845h-783.601c-83.052 174.13-257.609 292.35-459.797 292.534h-0.025zM511.956 813.689c1.43 0.020 3.119 0.032 4.811 0.032 157.798 0 292.136-100.44 342.572-240.876l0.796-2.539 16.676-49.151h732.256v-146.311h-146.223v-219.422h-146.311v219.422h-437.528l-18.168-46.781c-54.913-142.892-189.864-243.005-348.547-245.748l-0.335-0.005c-1.685-0.028-3.673-0.044-5.666-0.044-201.989 0-365.733 163.744-365.733 365.733s163.744 365.733 365.733 365.733c1.992 0 3.98-0.016 5.965-0.048l-0.299 0.004zM511.956 667.378c-121.184 0-219.422-98.239-219.422-219.422s98.239-219.422 219.422-219.422c121.184 0 219.422 98.239 219.422 219.422v0c-0.644 120.924-98.498 218.778-219.36 219.422h-0.062zM511.956 521.155c40.378 0 73.112-32.733 73.112-73.112s-32.733-73.112-73.112-73.112c-40.378 0-73.112 32.733-73.112 73.112v0c-0.005 0.316-0.008 0.688-0.008 1.061 0 39.797 32.262 72.058 72.058 72.058 0.373 0 0.745-0.003 1.117-0.008l-0.056 0.001z" />
<glyph unicode="&#xe912;" glyph-name="x_01" horiz-adv-x="1002" d="M475.201 385.696v0l-354.966 507.719h135.811l624.948-894.201h-135.811zM880.902 960l-323.905-376.463-258.596 376.463h-298.401l391.219-569.294-391.219-454.706h88.354l342.032 397.595 273.261-397.595h298.31l-405.701 590.426 373.092 433.574z" />
</font>
</defs>
</svg>
